Page MenuHomePhabricator

Please upload large file to Wikimedia Commons
Closed, ResolvedPublic

Description

Please upload this file to Wikimedia Commons using the filename "Jeonbuk Memorial altar for 70th anniversary of the Jeju April 3rd Incident (2).webm":
https://tools.wmflabs.org/videoconvert/server/php/files/2cb17a558201eaa223299cf7e19f74f3/convert/Jeonbuk%20Memorial%20altar%20for%2070th%20anniversary%20of%20the%20Jeju%20April%203rd%20Incident%20%282%29.webm
Please use the following description:

== {{int:filedesc}} ==
{{Information
|Description={{de|1=Jeonbuk Memorial altar for 70th anniversary of the Jeju April 3rd Incident (2)}}
{{en|1=Jeonbuk Memorial altar for 70th anniversary of the Jeju April 3rd Incident (2)}}
{{sv|1=Jeonbuk Memorial altar for 70th anniversary of the Jeju April 3rd Incident (2)}}
|Source={{own}}
|Date=2018-04-05
|Author= [[User:고려|고려]]
|Permission=
|other_versions=
|other_fields=
}}
{{Location dec|12.345|23.456|}}
== {{int:license-header}} ==
{{self|cc-by-4.0}}

[[Category:Videos]]
[[Category:Videos from South Korea]]
[[Category:Videos in Korean]]
[[Category:Files by User:고려]]

[[Category:Uploaded with videoconvert/Server-side uploads]]

Thank you!

Event Timeline

Goryeo created this task.Apr 6 2018, 9:42 AM
Restricted Application added a subscriber: Aklapper. · View Herald TranscriptApr 6 2018, 9:42 AM

Videoconvert... They should add async chunked uploading. This categorization is just terrible:

[[Category:Videos from (country)]]
[[Category:Videos in (language)]]
Goryeo updated the task description. (Show Details)Apr 6 2018, 11:04 PM
Goryeo updated the task description. (Show Details)Apr 6 2018, 11:19 PM
Restricted Application added a subscriber: revi. · View Herald TranscriptApr 6 2018, 11:19 PM
Goryeo added a comment.EditedApr 7 2018, 2:40 AM

Videoconvert... They should add async chunked uploading. This categorization is just terrible:

[[Category:Videos from (country)]]
[[Category:Videos in (language)]]

Category modified. What is "async chunked uploading" and how do I do it?

Dereckson claimed this task.Apr 7 2018, 9:55 PM
Dereckson moved this task from Blocked on SRE to Working on on the Wikimedia-Site-requests board.

As the file size is 18 GB, so I'm not sure how the storage will behave.

It's currently downloading on Terbium, will be done in 5-7 hours.

This is a 19min 1080p video afaict. If the storage don't like it I can re-encode it with the parameters of v2c (probably with quality losses).

@zhuyifei1999 Yes, that would be welcome, with a size target < 4.3 Gb.

파일 최대 용량은 4GiB (약 4.3기가바이트)입니다. 파일 용량이 이 이상이 넘어가면 이 아래로 내려가도록 조정해야 합니다.

@Dereckson https://v2c.wmflabs.org/J2_2.webm 3.4GiB sha1sum = cc9cbd9547b93fd4065b0395e83065a64e98ff96

frame=71193 fps=0.3 q=0.0 Lsize= 3485559kB time=00:19:46.58 bitrate=24063.8kbits/s dup=0 drop=12 speed=0.0042x
video:3449537kB audio:35061kB subtitle:0kB other streams:0kB global headers:0kB muxing overhead: 0.027589%

For future reference,

$ ffprobe -hide_banner J2.mp4
Input #0, mov,mp4,m4a,3gp,3g2,mj2, from 'J2.mp4':
  Metadata:
    major_brand     : mp42
    minor_version   : 0
    compatible_brands: isommp42
    creation_time   : 2018-04-04 07:08:25
    location        : +35.8138+127.1485/
    location-eng    : +35.8138+127.1485/
    com.android.version: 7.0
  Duration: 00:19:46.56, start: 0.000000, bitrate: 28267 kb/s
    Stream #0:0(eng): Video: h264 (High) (avc1 / 0x31637661), yuv420p(tv, bt709), 1920x1080, 28005 kb/s, SAR 1:1 DAR 16:9, 60.01 fps, 60 tbr, 90k tbn, 180k tbc (default)
    Metadata:
      creation_time   : 2018-04-04 07:08:25
      handler_name    : VideoHandle
    Stream #0:1(eng): Audio: aac (LC) (mp4a / 0x6134706D), 48000 Hz, stereo, fltp, 255 kb/s (default)
    Metadata:
      creation_time   : 2018-04-04 07:08:25
      handler_name    : SoundHandle
$ ffprobe -hide_banner J2_2.webm
Input #0, matroska,webm, from 'J2_2.webm':
  Metadata:
    encoder         : Lavf57.25.100
  Duration: 00:19:46.58, start: 0.007000, bitrate: 24063 kb/s
    Stream #0:0(eng): Video: vp9 (Profile 0), yuv420p(tv), 1920x1080, SAR 1:1 DAR 16:9, 60 fps, 60 tbr, 1k tbn, 1k tbc (default)
    Stream #0:1(eng): Audio: opus, 48000 Hz, stereo, fltp (default)
$ ls -l J2.mp4 J2_2.webm 
-rw-r--r-- 1 zhuyifei1999 wikidev 3569212738 Apr 15 05:13 J2_2.webm
-rw-r--r-- 1 zhuyifei1999 wikidev 4192595531 Apr  9 17:39 J2.mp4

Encoding parameters were discussed in T191572.

Dereckson closed this task as Resolved.EditedApr 15 2018, 7:29 PM
Terbium
$ mwscript importImages.php --wiki=commonswiki --comment-ext=txt --user=고려 --overwrite --skip-dupes .
Import Images

Importing Jeonbuk Memorial altar for 70th anniversary of the Jeju April 3rd Incident (2).webm...done.

Found: 1
Added: 1

File on Commons